Jump to content

Photo

John Wick 2014 1080p BluRay AVC TrueHD 7.1 Atmos-HDAccess

John Wick 2014 HDAccess Atmos BD50 Blu-Ray Disc Blu-Ray Untouched tt2911666

  • Please log in to reply
21 replies to this topic

#1 Nedsret-TP

Nedsret-TP

    TehParadox

  • Administrators
  • 4,521 posts
  • LocationSwitzerland
John Wick 2014 1080p BluRay AVC TrueHD 7.1 Atmos-HDAccess


59879b352c6b2.jpeg




dl.jpg

HDCenter Hidden Content
You'll be able to see the hidden content once you reply to this topic. (This forum is for only premium members.None Free)





 


imdb.png
http://www.imdb.com/title/tt2911666/



 

John Wick 2014 1080p BluRay AVC TrueHD 7.1 Atmos-HDAccess

DISC INFO:
Disc Title: John.Wick.2014.1080p.BluRay.AVC.TrueHD.7.1.Atmos-HDAccess
Disc Size: 47,432,553,165 bytes
Protection: AACS
BD-Java: Yes
BDInfo: 0.5.8

PLAYLIST REPORT:
Name: 00589.MPLS
Length: 1:41:12.899 (h:m:s.ms)
Size: 33,016,842,240 bytes
Total Bitrate: 43.49 Mbps

VIDEO:
Codec Bitrate Description
----- ------- -----------
MPEG-4 AVC Video 33233 kbps 1080p / 23.976 fps / 16:9 / High Profile 4.1

AUDIO:
Codec Language Bitrate Description
----- -------- ------- -----------
Dolby TrueHD Audio English 5205 kbps 7.1 / 48 kHz / 5205 kbps / 24-bit (AC3 Embedded: 5.1 / 48 kHz / 640 kbps)
Dolby Digital Audio Spanish 640 kbps 5.1 / 48 kHz / 640 kbps
Dolby Digital Audio English 224 kbps 2.0 / 48 kHz / 224 kbps / Dolby Surround
Dolby Digital Audio English 224 kbps 2.0 / 48 kHz / 224 kbps / Dolby Surround
Dolby Digital Audio English 224 kbps 2.0 / 48 kHz / 224 kbps / Dolby Surround

SUBTITLES:
Codec Language Bitrate Description
----- -------- ------- -----------
Presentation Graphics English 15.061 kbps
Presentation Graphics English 22.208 kbps
Presentation Graphics Spanish 16.369 kbps

FILES:
Name Time In Length Size Total Bitrate
---- ------- ------ ---- -------------
00508.M2TS 0:00:00.000 0:03:36.007 999,530,496 37,018
00501.M2TS 0:03:36.007 0:00:26.609 146,202,624 43,954
00503.M2TS 0:04:02.617 0:00:31.948 181,745,664 45,510
00511.M2TS 0:04:34.565 0:01:06.816 383,987,712 45,975
00510.M2TS 0:05:41.382 0:00:35.201 198,322,176 45,071
00516.M2TS 0:06:16.584 0:00:29.988 164,560,896 43,900
00520.M2TS 0:06:46.572 0:00:51.301 277,579,776 43,286
00518.M2TS 0:07:37.874 0:00:36.036 199,606,272 44,313
00507.M2TS 0:08:13.910 0:00:24.107 129,662,976 43,028
00512.M2TS 0:08:38.017 0:00:44.335 235,745,280 42,538
00519.M2TS 0:09:22.353 0:01:20.789 446,244,864 44,189
00513.M2TS 0:10:43.142 0:00:33.408 187,238,400 44,836
00509.M2TS 0:11:16.550 0:00:24.899 137,963,520 44,326
00517.M2TS 0:11:41.450 0:01:45.355 589,670,400 44,776
00515.M2TS 0:13:26.805 0:00:38.872 200,491,008 41,262
00506.M2TS 0:14:05.678 0:00:36.244 202,641,408 44,728
00514.M2TS 0:14:41.922 0:01:03.396 345,231,360 43,565
00504.M2TS 0:15:45.319 0:00:27.902 148,948,992 42,705
00502.M2TS 0:16:13.222 0:00:45.170 254,595,072 45,091
00505.M2TS 0:16:58.392 1:24:14.507 27,586,873,344 43,663




Click on image(CTRL + Left Click)

Posted 06 August 2017 - 10:44 PM

  • tdshader likes this
*HDCenter provides high speed download option to the Premium users by using fastest servers.
*If you do not intend to pay, please do not become a member. None Free Download..

HDCenter Admin

#2 edtel20

edtel20

    Member

  • Members
  • PipPip
  • 11 posts

thanks


Posted 08 August 2017 - 03:29 AM


#3 fenneck33

fenneck33

    Newbie

  • Members
  • Pip
  • 1 posts

Thanks.


Posted 01 September 2017 - 02:53 AM


#4 joeyyeoj1982

joeyyeoj1982

    Member

  • Members
  • PipPip
  • 26 posts

thanks 


Posted 04 September 2017 - 12:42 AM


#5 bahhouri

bahhouri

    Newbie

  • Members
  • Pip
  • 1 posts

Thanks


Posted 18 September 2017 - 12:30 PM


#6 novatillo11

novatillo11

    Member

  • Members
  • PipPip
  • 21 posts

Thank You!!!


Posted 18 September 2017 - 09:21 PM


#7 Guest_AndyHuy_*

Guest_AndyHuy_*
  • Guests

thank you so much


Posted 24 September 2017 - 10:11 PM


#8 steveredrum

steveredrum

    Advanced Member

  • Members
  • PipPipPip
  • 187 posts
  • LocationWorld Wide Via Hide All IP

Film & Menus Work Without Scenes Or Popup Menu Like Original Fix - Thanks


Posted 25 September 2017 - 10:45 PM

1d7db34422083f8b6a7dc780006390a4.jpg


#9 yaksung

yaksung

    Member

  • Members
  • PipPip
  • 77 posts
  • LocationFrom Malaysia

thank  you for sharing


Posted 06 November 2017 - 08:35 AM


#10 chrisyeong

chrisyeong

    Newbie

  • VIP Member
  • 9 posts

nice

 


Posted 15 November 2017 - 07:30 AM


#11 bedpunisher

bedpunisher

    Advanced Member

  • Members
  • PipPipPip
  • 324 posts
thanks

Posted 15 November 2017 - 02:08 PM


#12 ZcrisEzio

ZcrisEzio

    Newbie

  • Members
  • Pip
  • 1 posts

thanks


Posted 03 December 2017 - 04:07 PM


#13 gongy1

gongy1

    Newbie

  • Members
  • Pip
  • 6 posts

thanks


Posted 16 December 2017 - 05:14 PM


#14 makin76

makin76

    Newbie

  • Members
  • Pip
  • 1 posts

thanks bro


Posted 23 December 2017 - 06:57 AM


#15 tdshader

tdshader

    Newbie

  • Members
  • Pip
  • 1 posts

I like this.


Posted 31 December 2017 - 05:22 PM


#16 antuaka

antuaka

    Newbie

  • Members
  • Pip
  • 6 posts

Thanks bro


Posted 20 January 2018 - 04:27 PM


#17 lukacslaszlo80

lukacslaszlo80

    Member

  • Members
  • PipPip
  • 18 posts

thxxxxxxxx


Posted 25 January 2018 - 04:55 PM


#18 SirDarknight

SirDarknight

    Newbie

  • Members
  • Pip
  • 1 posts

This is awesome. Been looking all over for this


Posted 13 February 2018 - 05:42 AM


#19 jiangreo848

jiangreo848

    Newbie

  • Members
  • Pip
  • 1 posts

thanks


Posted 27 March 2018 - 02:34 PM


#20 jeje2k1

jeje2k1

    Newbie

  • Members
  • Pip
  • 1 posts

Thanks


Posted 19 May 2018 - 06:26 PM




Also tagged with one or more of these keywords: John Wick, 2014, HDAccess, Atmos, BD50, Blu-Ray Disc, Blu-Ray Untouched, tt2911666