Jump to content

Photo

The Fate of the Furious 2017 4K COMPLETE 2160p UltraHD Blu-ray DOLBY VISION AND HDR10 HEVC Atmos 7.1 -HDRINVASION

The Fate of the Furious

  • Please log in to reply
70 replies to this topic

#1 Nedsret-TP

Nedsret-TP

    TehParadox

  • Administrators
  • 3,562 posts
The Fate of the Furious 2017 4K COMPLETE 2160p UltraHD Blu-ray DOLBY VISION AND HDR10 HEVC Atmos 7.1 - HDRINVASION


59d99a7d919bd.jpg



dl.jpg

Hidden Content
You'll be able to see the hidden content once you reply to this topic.





 


imdb.png
http://www.imdb.com/title/tt4630562/



 

[font=consolas]The Fate of the Furious 2017 4K COMPLETE 2160p UltraHD Blu-ray DOLBY VISION AND HDR10 HEVC Atmos 7.1 -HDRINVASION
http://www.blu-ray.c...Blu-ray/177286/

00234.m2ts

Format/Info : Blu-ray Video
File size : 53.1 GiB
Duration : 2 h 15 min
Overall bit rate mode : Variable
Overall bit rate : 55.9 Mb/s
Maximum Overall bit rate : 109 Mb/s

Video #1
ID : 4113 (0x1011)
Menu ID : 1 (0x1)
Format : HEVC
Format/Info : High Efficiency Video Coding
Format profile : Main [email protected]@High
Codec ID : 36
Duration : 2 h 15 min
Width : 3 840 pixels
Height : 2 160 pixels
Display aspect ratio : 16:9
Frame rate : 23.976 (24000/1001) FPS
Color space : YUV
Chroma subsampling : 4:2:0 (Type 2)
Bit depth : 10 bits
Color range : Limited
Color primaries : BT.2020
Transfer characteristics : SMPTE ST 2084
Matrix coefficients : BT.2020 non-constant
Mastering display color pri : R: x=0.680000 y=0.320000, G: x=0.265000 y=0.690000, B: x=0.150000 y=0.060000, White point: x=0.312700 y=0.329000
Mastering display luminance : min: 0.0050 cd/m2, max: 4000.0000 cd/m2

Video #2
ID : 4117 (0x1015)
Menu ID : 1 (0x1)
Format : HEVC
Format/Info : High Efficiency Video Coding
Format profile : Main [email protected]@High
Codec ID : 36
Duration : 2 h 15 min
Width : 1 920 pixels
Height : 1 080 pixels
Display aspect ratio : 16:9
Frame rate : 23.976 (24000/1001) FPS
Color space : YUV
Chroma subsampling : 4:2:0 (Type 2)
Bit depth : 10 bits
Color range : Limited
Color primaries : BT.2020
Transfer characteristics : SMPTE ST 2084
Matrix coefficients : BT.2020 non-constant
Mastering display color pri : R: x=0.680000 y=0.320000, G: x=0.265000 y=0.690000, B: x=0.150000 y=0.060000, White point: x=0.312700 y=0.329000
Mastering display luminance : min: 0.0050 cd/m2, max: 4000.0000 cd/m2

Audio #1
ID : 4352 (0x1100)
Menu ID : 1 (0x1)
Format : DTS
Format/Info : Digital Theater Systems
Format profile : X / MA / Core
Mode : 16
Format settings, Endianness : Big
Muxing mode : Stream extension
Codec ID : 134
Duration : 2 h 15 min
Bit rate mode : Variable / Variable / Constant
Bit rate : Unknown / Unknown / 1 509 kb/s
Channel(s) : Object Based / 8 channels / 6 channels
Channel positions : Object Based / Front: L C R, Side: L R, Back: L R, LFE / Front: L C R, Side: L R, LFE
Sampling rate : / 48.0 kHz / 48.0 kHz
Frame rate : 93.750 FPS (512 SPF)
Bit depth : / 24 bits / 24 bits
Compression mode : / Lossless / Lossy

Audio #2
ID : 4353 (0x1101)
Menu ID : 1 (0x1)
Format : DTS
Format/Info : Digital Theater Systems
Mode : 16
Format settings, Endianness : Big
Codec ID : 130
Duration : 2 h 15 min
Bit rate mode : Constant
Bit rate : 255 kb/s
Channel(s) : 2 channels
Channel positions : Front: L R
Sampling rate : 48.0 kHz
Frame rate : 93.750 FPS (512 SPF)
Bit depth : 24 bits
Compression mode : Lossy
Stream size : 248 MiB (0%)

Audio #3
ID : 4354 (0x1102)
Menu ID : 1 (0x1)
Format : DTS
Format/Info : Digital Theater Systems
Mode : 16
Format settings, Endianness : Big
Codec ID : 130
Duration : 2 h 15 min
Bit rate mode : Constant
Bit rate : 768 kb/s
Channel(s) : 6 channels
Channel positions : Front: L C R, Side: L R, LFE
Sampling rate : 48.0 kHz
Frame rate : 93.750 FPS (512 SPF)
Bit depth : 24 bits
Compression mode : Lossy
Stream size : 747 MiB (1%)

Audio #4
ID : 4355 (0x1103)
Menu ID : 1 (0x1)
Format : DTS
Format/Info : Digital Theater Systems
Mode : 16
Format settings, Endianness : Big
Codec ID : 130
Duration : 2 h 15 min
Bit rate mode : Constant
Bit rate : 768 kb/s
Channel(s) : 6 channels
Channel positions : Front: L C R, Side: L R, LFE
Sampling rate : 48.0 kHz
Frame rate : 93.750 FPS (512 SPF)
Bit depth : 24 bits
Compression mode : Lossy
Stream size : 747 MiB (1%)

Audio #5
ID : 4356 (0x1104)
Menu ID : 1 (0x1)
Format : AC-3
Format/Info : Audio Coding 3
Mode : Dolby Digital
Format settings, Endianness : Big
Codec ID : 129
Duration : 2 h 15 min
Bit rate mode : Constant
Bit rate : 192 kb/s
Channel(s) : 2 channels
Channel positions : Front: L R
Sampling rate : 48.0 kHz
Frame rate : 31.250 FPS (1536 SPF)
Bit depth : 16 bits
Compression mode : Lossy
Delay relative to video : -8 ms
Stream size : 187 MiB (0%)
Service kind : Complete Main

[b]Click on image(CTRL + Left Click)

Posted 08 October 2017 - 03:25 AM

  • SeptiC, zdeno12, edhhat and 2 others like this

#2 ndvora

ndvora

    Super Premium

  • VIP Member
  • 48 posts

Thanks a lot.


Posted 08 October 2017 - 05:26 AM


#3 benus

benus

    Newbie

  • Members
  • Pip
  • 1 posts

Thanks for the effort.


Posted 08 October 2017 - 06:35 AM


#4 dazgooner

dazgooner

    Member

  • Members
  • PipPip
  • 83 posts

thanks

 


Posted 08 October 2017 - 06:46 AM


#5 DadyFBL

DadyFBL

    Member

  • Members
  • PipPip
  • 35 posts

Thanks!!!!


Posted 08 October 2017 - 09:19 AM


#6 eliadgavri

eliadgavri

    Newbie

  • Members
  • Pip
  • 3 posts

thank you


Posted 08 October 2017 - 09:57 AM


#7 ach2015

ach2015

    Newbie

  • Members
  • Pip
  • 6 posts

thanks!!


Posted 08 October 2017 - 10:03 AM


#8 uzurod

uzurod

    Newbie

  • Members
  • Pip
  • 1 posts

Thanks !!


Posted 08 October 2017 - 11:02 AM


#9 ApaChe

ApaChe

    Newbie

  • Members
  • Pip
  • 1 posts

Thanks


Posted 08 October 2017 - 12:39 PM


#10 Brando

Brando

    Newbie

  • Members
  • Pip
  • 4 posts

Big thanks!


Posted 08 October 2017 - 12:47 PM


#11 macfly12

macfly12

    Newbie

  • Members
  • Pip
  • 2 posts

thanks a lot


Posted 08 October 2017 - 01:59 PM


#12 Anchan

Anchan

    Member

  • Members
  • PipPip
  • 16 posts

THANKS SO MUCH

 


Posted 08 October 2017 - 03:06 PM


#13 mekoj

mekoj

    Member

  • Members
  • PipPip
  • 28 posts

thank

 


Posted 08 October 2017 - 03:29 PM


#14 shock974

shock974

    Member

  • Members
  • PipPip
  • 15 posts

thank youuuuuu


Posted 08 October 2017 - 05:30 PM


#15 pauls156

pauls156

    Newbie

  • Members
  • Pip
  • 6 posts

Thank you.


Posted 08 October 2017 - 06:03 PM


#16 ajdon1996

ajdon1996

    Member

  • Members
  • PipPip
  • 11 posts

awesome

 


Posted 08 October 2017 - 07:19 PM


#17 ClarkKent781115

ClarkKent781115

    Newbie

  • Members
  • Pip
  • 2 posts

Thanks man


Posted 08 October 2017 - 08:05 PM


#18 xxxzuku1

xxxzuku1

    Newbie

  • Members
  • Pip
  • 4 posts

Dzięki


Posted 09 October 2017 - 01:17 AM


#19 crosser0426

crosser0426

    Newbie

  • Members
  • Pip
  • 2 posts

thank you so much


Posted 09 October 2017 - 03:33 AM


#20 ehsan149

ehsan149

    Newbie

  • Members
  • Pip
  • 5 posts

Thanks a lot.


Posted 10 October 2017 - 05:28 AM




Also tagged with one or more of these keywords: The Fate of the Furious