Jump to content

Photo

Independence Day - Resurgence 2016 Blu-ray EUR 1080p AVC DTS 5.1

Independence Day - Resurgence 2016 Blu-ray EUR 1080p tt1628841

  • Please log in to reply
3 replies to this topic

#1 Nedsret-TP

Nedsret-TP

    TehParadox

  • Administrators
  • 3,477 posts
Independence Day - Resurgence 2016 Blu-ray EUR 1080p AVC DTS 5.1


59526ed06621e.jpeg




dl.jpg

Hidden Content
You'll be able to see the hidden content once you reply to this topic.





 


imdb.png
http://www.imdb.com/title/tt1628841/



 

Independence Day - Resurgence 2016 Blu-ray EUR 1080p AVC DTS 5.1

DISC INFO:

Disc Title: INDEPENDENCE_DAY_RESURGENCE_
Disc Size: 44 877 458 532 bytes
Protection: AACS
BD-Java: Yes
BDInfo: 0.5.8

PLAYLIST REPORT:

Name: 00800.MPLS
Length: 1:59:44.176 (h:m:s.ms)
Size: 33 911 894 016 bytes
Total Bitrate: 37,76 Mbps

VIDEO:

Codec Bitrate Description
----- ------- -----------
MPEG-4 AVC Video 25815 kbps 1080p / 23,976 fps / 16:9 / High Profile 4.1

AUDIO:

Codec Language Bitrate Description
----- -------- ------- -----------
DTS-HD Master Audio English 5023 kbps 7.1 / 48 kHz / 5023 kbps / 24-bit (DTS Core: 5.1-ES / 48 kHz / 1509 kbps / 24-bit)
DTS Audio Russian 768 kbps 5.1 / 48 kHz / 768 kbps / 24-bit
Dolby Digital Audio English 448 kbps 5.1 / 48 kHz / 448 kbps
Dolby Digital Audio French 448 kbps 5.1 / 48 kHz / 448 kbps
Dolby Digital Audio Portuguese 448 kbps 5.1 / 48 kHz / 448 kbps
Dolby Digital Audio Spanish 448 kbps 5.1 / 48 kHz / 448 kbps
Dolby Digital Audio Turkish 448 kbps 5.1 / 48 kHz / 448 kbps
Dolby Digital Audio Ukrainian 448 kbps 5.1 / 48 kHz / 448 kbps
Dolby Digital Audio English 224 kbps 2.0 / 48 kHz / 224 kbps

SUBTITLES:

Codec Language Bitrate Description
----- -------- ------- -----------
Presentation Graphics English 45,339 kbps
Presentation Graphics English 0,039 kbps
Presentation Graphics English 61,611 kbps
Presentation Graphics Arabic 19,291 kbps
Presentation Graphics Danish 34,214 kbps
Presentation Graphics Danish 54,236 kbps
Presentation Graphics Estonian 35,836 kbps
Presentation Graphics Finnish 32,701 kbps
Presentation Graphics Finnish 52,632 kbps
Presentation Graphics French 37,522 kbps
Presentation Graphics French 53,529 kbps
Presentation Graphics Hebrew 25,259 kbps
Presentation Graphics Icelandic 36,050 kbps
Presentation Graphics Korean 22,317 kbps
Presentation Graphics Korean 22,883 kbps
Presentation Graphics Latvian 34,038 kbps
Presentation Graphics Lithuanian 34,665 kbps
Presentation Graphics Norwegian 32,946 kbps
Presentation Graphics Norwegian 51,933 kbps
Presentation Graphics Portuguese 37,839 kbps
Presentation Graphics Portuguese 39,274 kbps
Presentation Graphics Russian 36,864 kbps
Presentation Graphics Russian 58,861 kbps
Presentation Graphics Spanish 35,113 kbps
Presentation Graphics Spanish 53,791 kbps
Presentation Graphics Swedish 34,764 kbps
Presentation Graphics Swedish 50,552 kbps
Presentation Graphics Turkish 35,719 kbps
Presentation Graphics Ukrainian 36,892 kbps

FILES:

Name Time In Length Size Total Bitrate
---- ------- ------ ---- -------------
00600.M2TS 0:00:00.000 0:03:19.282 921 243 648 36 982
00601.M2TS 0:03:19.282 0:00:11.636 59 037 696 40 588
00603.M2TS 0:03:30.919 1:56:13.257 32 931 612 672 37 780



59526fac2aa9e.png 59526fad67e6e.png 59526fb0764b7.png 59526fd28fb24.png 59526fd6d6d5c.png 59526ff5d7052.png
Click on image

Posted 10 October 2016 - 01:05 AM

  • yakirra likes this

#2 gsc102

gsc102

    Newbie

  • Members
  • Pip
  • 8 posts

thank you for sharing


Posted 29 June 2017 - 04:20 AM


#3 jerseymike

jerseymike

    Member

  • Members
  • PipPip
  • 71 posts

thanks


Posted 29 January 2018 - 09:49 PM


#4 yakirra

yakirra

    Newbie

  • Members
  • Pip
  • 6 posts

thanks


Posted 25 June 2018 - 11:03 AM




Also tagged with one or more of these keywords: Independence Day - Resurgence 2016, Blu-ray EUR 1080p, tt1628841