Jump to content

Photo

Transformers Complete Collection 4K UltraHD 2160p Blu-ray HEVC

Transformers

  • Please log in to reply
26 replies to this topic

#1 Nedsret-TP

Nedsret-TP

    TehParadox

  • Administrators
  • 3,476 posts
Transformers 2007 2160p EUR UHD Blu-ray HEVC TrueHD 7.1
Transformers: Revenge of the Fallen 2009 2160p EUR UHD Blu-ray HEVC TrueHD 7.1
Transformers: Dark of the Moon 2011 2160p EUR UHD Blu-ray HEVC TrueHD 7.1
Transformers Age of Extinction 2014 2160p EUR UHD Blu-ray HEVC TrueHD 7.1
Transformers The Last Knight 2017 2160p IMAX UHD Blu-ray HEVC Atmos-TERMiNAL


5a4e11af5ce81.jpg




dl.jpg

Hidden Content
You'll be able to see the hidden content once you reply to this topic.




 


imdb.png
http://www.imdb.com/title/tt0418279/
http://www.imdb.com/title/tt1055369/
http://www.imdb.com/title/tt1399103/
http://www.imdb.com/title/tt2109248/
http://www.imdb.com/title/tt3371366/



 

http://www.blu-ray.c...Blu-ray/190545/
MD5
Transformers.2007.MULTi.COMPLETE.UHD.BLURAY.iso | 4009876FD770D8C2BB817F5AD3897A43
Transformers.2009.MULTi.COMPLETE.UHD.BLURAY.iso | B1E5ADA9A4F44AA814B614BCF89599C8
Transformers.2011.MULTi.COMPLETE.UHD.BLURAY.iso | 953EFB9BDB808FBBB5548B608F7A8AF5
Transformers.2014.MULTi.COMPLETE.UHD.BLURAY.iso | 8D59C16E74E5F4131074543D5CDDECF7
Transformers.2017.COMPLETE.UHD.BLURAY-TERMiNAL.iso | 3270C235BBD772AF43B327016B71C590

5a4e13ed84e2c.PNG

Disc Title: Transformers.2007.MULTi.COMPLETE.UHD.BLURAY
Disc Size: 91,892,089,469 bytes
Protection: AACS2
BD-Java: Yes
Extras: Ultra HD
BDInfo: 0.5.8.7 (compatible layout created by DVDFab 10.0.7.4)

PLAYLIST REPORT:
Name: 00800.MPLS
Length: 2:23:27.348 (h:m:s.ms)
Size: 90,209,574,912 bytes
Total Bitrate: 83.84 Mbps

(*) Indicates included stream hidden by this playlist.

VIDEO:
Codec Bitrate Description
----- ------- -----------
MPEG-H HEVC Video 61846 kbps 2160p / 23.976 fps / 16:9 / Main 10 Profile 5.1 High / 4:2:0 / 10 bits / HDR / BT.2020 /
* MPEG-H HEVC Video 7130 kbps 1080p / 23.976 fps / 16:9 / Main 10 Profile 5.1 High / 4:2:0 / 10 bits / Dolby Vision / BT.2020 /

AUDIO:
Codec Language Bitrate Description
----- -------- ------- -----------
Dolby Atmos/TrueHD Audio English 4717 kbps 7.1-Atmos / 48 kHz / 4717 kbps / 24-bit (AC3 Core: 5.1-EX / 48 kHz / 640 kbps)
Dolby Digital Audio German 640 kbps 5.1 / 48 kHz / 640 kbps
Dolby Digital Audio English 640 kbps 5.1 / 48 kHz / 640 kbps
Dolby Digital Audio Spanish 640 kbps 5.1 / 48 kHz / 640 kbps
Dolby Digital Audio French 640 kbps 5.1 / 48 kHz / 640 kbps
Dolby Digital Audio Italian 640 kbps 5.1 / 48 kHz / 640 kbps
Dolby Digital Audio Japanese 640 kbps 5.1 / 48 kHz / 640 kbps
Dolby Digital Audio English 224 kbps 2.0 / 48 kHz / 224 kbps

SUBTITLES:
Codec Language Bitrate Description
----- -------- ------- -----------
Presentation Graphics Arabic 16.094 kbps
Presentation Graphics Chinese 20.847 kbps
Presentation Graphics Czech 24.229 kbps
Presentation Graphics Danish 29.024 kbps
Presentation Graphics German 42.787 kbps
Presentation Graphics Greek 27.568 kbps
Presentation Graphics English 39.971 kbps
Presentation Graphics Spanish 29.298 kbps
Presentation Graphics French 27.712 kbps
Presentation Graphics Icelandic 29.375 kbps
Presentation Graphics Italian 35.431 kbps
Presentation Graphics Japanese 25.208 kbps
Presentation Graphics Korean 17.098 kbps
Presentation Graphics Chinese 26.827 kbps
Presentation Graphics Dutch 23.348 kbps
Presentation Graphics Norwegian 25.944 kbps
Presentation Graphics Portuguese 33.111 kbps
Presentation Graphics Romanian 27.658 kbps
Presentation Graphics Slovak 37.116 kbps
Presentation Graphics Finnish 26.253 kbps
Presentation Graphics Swedish 28.329 kbps
Presentation Graphics Thai 24.771 kbps
Presentation Graphics Turkish 31.345 kbps
Presentation Graphics Ukrainian 40.137 kbps
Presentation Graphics English 43.558 kbps
Presentation Graphics German 53.061 kbps
Presentation Graphics English 50.793 kbps
Presentation Graphics Spanish 44.359 kbps
Presentation Graphics French 41.434 kbps
Presentation Graphics Italian 47.333 kbps
Presentation Graphics Japanese 33.376 kbps
Presentation Graphics Korean 34.791 kbps

FILES:
Name Time In Length Size Total Bitrate
---- ------- ------ ---- -------------
00018.M2TS 0:00:00.000 2:23:27.348 90,209,574,912 83,844 kbps

Disc Title: Transformers.2009.MULTi.COMPLETE.UHD.BLURAY
Disc Size: 94,826,764,090 bytes
Protection: AACS2
BD-Java: Yes
Extras: Ultra HD
BDInfo: 0.5.8.7 (compatible layout created by DVDFab 10.0.7.4)

PLAYLIST REPORT:
Name: 00800.MPLS
Length: 2:29:53.025 (h:m:s.ms)
Size: 93,163,948,032 bytes
Total Bitrate: 82.88 Mbps

(*) Indicates included stream hidden by this playlist.

VIDEO:
Codec Bitrate Description
----- ------- -----------
MPEG-H HEVC Video 60828 kbps 2160p / 23.976 fps / 16:9 / Main 10 Profile 5.1 High / 4:2:0 / 10 bits / HDR / BT.2020 /
* MPEG-H HEVC Video 6951 kbps 1080p / 23.976 fps / 16:9 / Main 10 Profile 5.1 High / 4:2:0 / 10 bits / Dolby Vision / BT.2020 /

AUDIO:
Codec Language Bitrate Description
----- -------- ------- -----------
Dolby Atmos/TrueHD Audio English 4787 kbps 7.1-Atmos / 48 kHz / 4787 kbps / 24-bit (AC3 Core: 5.1-EX / 48 kHz / 640 kbps)
Dolby Digital Audio German 640 kbps 5.1 / 48 kHz / 640 kbps
Dolby Digital Audio English 640 kbps 5.1 / 48 kHz / 640 kbps
Dolby Digital Audio Spanish 640 kbps 5.1 / 48 kHz / 640 kbps
Dolby Digital Audio French 640 kbps 5.1 / 48 kHz / 640 kbps
Dolby Digital Audio Italian 640 kbps 5.1 / 48 kHz / 640 kbps
Dolby Digital Audio Japanese 640 kbps 5.1 / 48 kHz / 640 kbps
Dolby Digital Audio English 224 kbps 2.0 / 48 kHz / 224 kbps

SUBTITLES:
Codec Language Bitrate Description
----- -------- ------- -----------
Presentation Graphics Arabic 16.841 kbps
Presentation Graphics Chinese 22.582 kbps
Presentation Graphics Czech 29.824 kbps
Presentation Graphics Danish 31.486 kbps
Presentation Graphics German 41.546 kbps
Presentation Graphics Greek 30.113 kbps
Presentation Graphics English 39.621 kbps
Presentation Graphics Spanish 35.889 kbps
Presentation Graphics French 29.961 kbps
Presentation Graphics Icelandic 32.178 kbps
Presentation Graphics Italian 37.579 kbps
Presentation Graphics Japanese 27.594 kbps
Presentation Graphics Korean 18.696 kbps
Presentation Graphics Chinese 27.205 kbps
Presentation Graphics Dutch 25.412 kbps
Presentation Graphics Norwegian 28.241 kbps
Presentation Graphics Portuguese 36.007 kbps
Presentation Graphics Romany 32.115 kbps
Presentation Graphics Slovak 35.721 kbps
Presentation Graphics Finnish 28.824 kbps
Presentation Graphics Swedish 33.223 kbps
Presentation Graphics Thai 26.426 kbps
Presentation Graphics Turkish 34.7 kbps
Presentation Graphics Ukrainian 40.15 kbps
Presentation Graphics English 42.404 kbps
Presentation Graphics German 60.586 kbps
Presentation Graphics English 64.745 kbps
Presentation Graphics Spanish 57.355 kbps
Presentation Graphics French 55.675 kbps
Presentation Graphics Italian 59.5 kbps
Presentation Graphics Japanese 40.126 kbps
Presentation Graphics Korean 36.703 kbps

FILES:
Name Time In Length Size Total Bitrate
---- ------- ------ ---- -------------
00010.M2TS 0:00:00.000 2:29:53.025 93,163,948,032 82,876 kbps

Disc Title: Transformers.3.2011.MULTi.COMPLETE.UHD.BLURAY
Disc Size: 96,673,981,746 bytes
Protection: AACS2
BD-Java: Yes
Extras: Ultra HD
BDInfo: 0.5.8.7 (compatible layout created by DVDFab 10.0.7.4)

PLAYLIST REPORT:
Name: 00800.MPLS
Length: 2:34:23.295 (h:m:s.ms)
Size: 95,172,698,112 bytes
Total Bitrate: 82.19 Mbps

(*) Indicates included stream hidden by this playlist.

VIDEO:
Codec Bitrate Description
----- ------- -----------
MPEG-H HEVC Video 60607 kbps 2160p / 23.976 fps / 16:9 / Main 10 Profile 5.1 High / 4:2:0 / 10 bits / HDR / BT.2020 /
* MPEG-H HEVC Video 6862 kbps 1080p / 23.976 fps / 16:9 / Main 10 Profile 5.1 High / 4:2:0 / 10 bits / Dolby Vision / BT.2020 /

AUDIO:
Codec Language Bitrate Description
----- -------- ------- -----------
Dolby Atmos/TrueHD Audio English 5028 kbps 7.1-Atmos / 48 kHz / 5028 kbps / 24-bit (AC3 Core: 5.1-EX / 48 kHz / 640 kbps)
Dolby Digital Audio German 640 kbps 5.1 / 48 kHz / 640 kbps
Dolby Digital Audio English 640 kbps 5.1 / 48 kHz / 640 kbps
Dolby Digital Audio Spanish 640 kbps 5.1 / 48 kHz / 640 kbps
Dolby Digital Audio French 640 kbps 5.1 / 48 kHz / 640 kbps
Dolby Digital Audio Italian 640 kbps 5.1 / 48 kHz / 640 kbps
Dolby Digital Audio Japanese 640 kbps 5.1 / 48 kHz / 640 kbps

SUBTITLES:
Codec Language Bitrate Description
----- -------- ------- -----------
Presentation Graphics Arabic 18.441 kbps
Presentation Graphics Chinese 26.929 kbps
Presentation Graphics Czech 31.657 kbps
Presentation Graphics Danish 30.384 kbps
Presentation Graphics German 40.236 kbps
Presentation Graphics Greek 34.481 kbps
Presentation Graphics English 38.79 kbps
Presentation Graphics Spanish 35.751 kbps
Presentation Graphics French 30.14 kbps
Presentation Graphics Hindi 30.886 kbps
Presentation Graphics Icelandic 30.928 kbps
Presentation Graphics Italian 33.029 kbps
Presentation Graphics Japanese 25.529 kbps
Presentation Graphics Korean 19.185 kbps
Presentation Graphics Chinese 26.484 kbps
Presentation Graphics Dutch 30.907 kbps
Presentation Graphics Norwegian 30.143 kbps
Presentation Graphics Portuguese 34.346 kbps
Presentation Graphics Romany 31.437 kbps
Presentation Graphics Slovak 35.974 kbps
Presentation Graphics Finnish 36.253 kbps
Presentation Graphics Swedish 32.065 kbps
Presentation Graphics Thai 25.455 kbps
Presentation Graphics Turkish 33.279 kbps
Presentation Graphics Ukrainian 38.293 kbps
Presentation Graphics English 42.86 kbps
Presentation Graphics Japanese 0.175 kbps

FILES:
Name Time In Length Size Total Bitrate
---- ------- ------ ---- -------------
00018.M2TS 0:00:00.000 2:34:23.295 95,172,698,112 82,193 kbps

Disc Title: Transformers.4.2014.MULTi.COMPLETE.UHD.BLURAY
Disc Size: 99,365,584,388 bytes
Protection: AACS2
BD-Java: Yes
Extras: Ultra HD
BDInfo: 0.5.8.7 (compatible layout created by DVDFab 10.0.7.4)

PLAYLIST REPORT:
Name: 00800.MPLS
Length: 2:45:07.272 (h:m:s.ms)
Size: 98,389,284,864 bytes
Total Bitrate: 79.45 Mbps

(*) Indicates included stream hidden by this playlist.

VIDEO:
Codec Bitrate Description
----- ------- -----------
MPEG-H HEVC Video 57926 kbps 2160p / 23.976 fps / 16:9 / Main 10 Profile 5.1 High / 4:2:0 / 10 bits / HDR / BT.2020 /
* MPEG-H HEVC Video 6460 kbps 1080p / 23.976 fps / 16:9 / Main 10 Profile 5.1 High / 4:2:0 / 10 bits / Dolby Vision / BT.2020 /

AUDIO:
Codec Language Bitrate Description
----- -------- ------- -----------
Dolby Atmos/TrueHD Audio English 5665 kbps 7.1-Atmos / 48 kHz / 5665 kbps / 24-bit (AC3 Core: 5.1-EX / 48 kHz / 640 kbps)
Dolby Digital Audio German 640 kbps 5.1 / 48 kHz / 640 kbps
Dolby Digital Audio English 640 kbps 5.1 / 48 kHz / 640 kbps
Dolby Digital Audio Spanish 640 kbps 5.1 / 48 kHz / 640 kbps
Dolby Digital Audio French 640 kbps 5.1 / 48 kHz / 640 kbps
Dolby Digital Audio Italian 640 kbps 5.1 / 48 kHz / 640 kbps
Dolby Digital Audio Japanese 640 kbps 5.1 / 48 kHz / 640 kbps

SUBTITLES:
Codec Language Bitrate Description
----- -------- ------- -----------
Presentation Graphics Arabic 16.457 kbps
Presentation Graphics Czech 26.064 kbps
Presentation Graphics Danish 28.293 kbps
Presentation Graphics German 34.494 kbps
Presentation Graphics Greek 32.34 kbps
Presentation Graphics English 34.816 kbps
Presentation Graphics Spanish 32.379 kbps
Presentation Graphics French 28.017 kbps
Presentation Graphics Hindi 29.603 kbps
Presentation Graphics Icelandic 29.465 kbps
Presentation Graphics Italian 30.219 kbps
Presentation Graphics Japanese 24.777 kbps
Presentation Graphics Korean 18.918 kbps
Presentation Graphics Dutch 27.464 kbps
Presentation Graphics Norwegian 29.078 kbps
Presentation Graphics Portuguese 32.534 kbps
Presentation Graphics Romanian 27.549 kbps
Presentation Graphics Slovak 28.053 kbps
Presentation Graphics Finnish 30.9 kbps
Presentation Graphics Swedish 29.697 kbps
Presentation Graphics Thai 21.956 kbps
Presentation Graphics Turkish 30.963 kbps
Presentation Graphics Ukrainian 34.257 kbps
Presentation Graphics English 40.454 kbps
Presentation Graphics Japanese 0.352 kbps

FILES:
Name Time In Length Size Total Bitrate
---- ------- ------ ---- -------------
00011.M2TS 0:00:00.000 2:45:07.272 98,389,284,864 79,448 kbps

RELEASE NAME........: Transformers.The.Last.Knight.2017.COMPLETE.UHD.BLURAY-TERMiNAL
RELEASE SIZE........: 90.27 GB
RUNTIME.............: 2 h 34 min
VIDEO CODEC.........: HEVC
FRAMERATE...........: 23.976 (24000/1001) FPS
RESOLUTION..........: 3840x2160 pixels
BITRATE.............: 62.1 Mbps
AUDIO...............: Atmos / TrueHD / 6912 kb/s @ Object Based / 7.1 channels
AUDIO...............: English AC3 @ 640 kb/s @ 5.1 channels
AUDIO...............: French AC3 @ 640 kb/s @ 5.1 channels
AUDIO...............: Spanish AC3 @ 640 kb/s @ 5.1 channels
AUDIO...............: Portuguese AC3 @ 640 kb/s @ 5.1 channels
SUBTITLES...........: English
SUBTITLES...........: French
SUBTITLES...........: Spanish
SUBTITLES...........: Portuguese




Click on image(CTRL + Left Click)

Posted 04 January 2018 - 11:46 AM


#2 DeltaXX

DeltaXX

    Premium Member

  • VIP Member
  • 41 posts

thanks


Posted 04 January 2018 - 12:26 PM


#3 3veronicas

3veronicas

    Member

  • Members
  • PipPip
  • 14 posts

Thanks!


Posted 04 January 2018 - 05:19 PM


#4 cuit100

cuit100

    Member

  • Members
  • PipPip
  • 41 posts

:)


Posted 04 January 2018 - 08:14 PM


#5 khoa78

khoa78

    Newbie

  • Members
  • Pip
  • 2 posts

sweet, thank you!


Posted 07 January 2018 - 08:09 AM


#6 snipes

snipes

    Member

  • Members
  • PipPip
  • 14 posts

Thank you ! I was looking exactly for this serie !!!!


Posted 07 January 2018 - 04:06 PM


#7 vtngmmk

vtngmmk

    Newbie

  • Members
  • Pip
  • 2 posts

thankz


Posted 08 January 2018 - 02:27 PM


#8 erorr200

erorr200

    Newbie

  • Members
  • Pip
  • 3 posts

thankssssssssss


Posted 08 January 2018 - 05:19 PM


#9 PhenixS1970

PhenixS1970

    Advanced Member

  • VIP Member
  • 105 posts

Thank you very much.


Posted 09 January 2018 - 08:08 AM


#10 quangdm

quangdm

    Newbie

  • Members
  • Pip
  • 1 posts

thank for hard word


Posted 09 January 2018 - 05:31 PM


#11 307sw

307sw

    Newbie

  • Members
  • Pip
  • 1 posts

t

hank for hard word


Posted 09 January 2018 - 07:49 PM


#12 kobe

kobe

    Newbie

  • Members
  • Pip
  • 1 posts

thanks


Posted 12 January 2018 - 04:29 PM


#13 sarahdragon26

sarahdragon26

    Newbie

  • Members
  • Pip
  • 1 posts


Posted 15 January 2018 - 07:15 PM


#14 nabet

nabet

    Member

  • Members
  • PipPip
  • 55 posts

MERCI


Posted 16 January 2018 - 02:27 PM


#15 ya378

ya378

    Newbie

  • Members
  • Pip
  • 3 posts

thanks  :)


Posted 20 January 2018 - 07:43 AM


#16 Filippilny

Filippilny

    Newbie

  • Members
  • Pip
  • 2 posts

thanks


Posted 26 January 2018 - 04:50 PM


#17 CWBS

CWBS

    Member

  • Members
  • PipPip
  • 13 posts

Torrent


Posted 29 January 2018 - 01:51 AM


#18 tosh123

tosh123

    Newbie

  • Members
  • Pip
  • 2 posts

thanks


Posted 29 January 2018 - 10:44 AM


#19 bluemax67

bluemax67

    Newbie

  • Members
  • Pip
  • 5 posts

thanks


Posted 03 February 2018 - 12:46 PM


#20 Chifu

Chifu

    Newbie

  • Members
  • Pip
  • 3 posts

Thank you


Posted 08 February 2018 - 08:27 PM




Also tagged with one or more of these keywords: Transformers