Jump to content

Photo

Leon 1994 4K UltraHD 2160p Blu-ray HEVC - CrsS


  • Please log in to reply
8 replies to this topic

#1 Nedsret-TP

Nedsret-TP

    TehParadox

  • Administrators
  • 3,476 posts
Léon: The Professional 1994 4K UltraHD 2160p Blu-ray HEVC - CrsS 


5a6ac19e8f38e.jpg




dl.jpg

Hidden Content
You'll be able to see the hidden content once you reply to this topic.





 


imdb.png
http://www.imdb.com/title/tt0110413/



 

Léon: The Professional 1994 4K UltraHD 2160p Blu-ray HEVC - Crs

International Cut
DISC INFO:
Disc Title: PROFESSIONAL_THE International Cut
Disc Size: 90,067,551,522 bytes
Protection: AACS2
BD-Java: Yes
Extras: Ultra HD
BDInfo: 0.5.8.7 (compatible layout created by DVDFab 10.0.7.1)

PLAYLIST REPORT:
Name: 00506.MPLS
Length: 2:12:57.969 (h:m:s.ms)
Size: 83,192,586,240 bytes
Total Bitrate: 83.42 Mbps

(*) Indicates included stream hidden by this playlist.

VIDEO:
Codec Bitrate Description
----- ------- -----------
MPEG-H HEVC Video 64818 kbps 2160p / 23.976 fps / 16:9 / Main 10 Profile 5.1 High / 4:2:0 / 10 bits / HDR / BT.2020 /

AUDIO:
Codec Language Bitrate Description
----- -------- ------- -----------
Dolby Atmos/TrueHD Audio English 5018 kbps 7.1-Atmos / 48 kHz / 5018 kbps / 24-bit (AC3 Core: 5.1 / 48 kHz / 640 kbps)
Dolby Digital Audio French 640 kbps 5.1 / 48 kHz / 640 kbps
Dolby Digital Audio Portuguese 640 kbps 5.1 / 48 kHz / 640 kbps
* Dolby Atmos/TrueHD Audio English 5010 kbps 7.1-Atmos / 48 kHz / 5010 kbps / 24-bit (AC3 Core: 5.1 / 48 kHz / 640 kbps)
* Dolby Digital Audio French 640 kbps 5.1 / 48 kHz / 640 kbps
* Dolby Digital Audio Portuguese 640 kbps 5.1 / 48 kHz / 640 kbps

SUBTITLES:
Codec Language Bitrate Description
----- -------- ------- -----------
Presentation Graphics English 25.416 kbps
Presentation Graphics English 22.912 kbps
Presentation Graphics French 20.83 kbps
Presentation Graphics Portuguese 18.693 kbps
Presentation Graphics Spanish 20.612 kbps

FILES:
Name Time In Length Size Total Bitrate
---- ------- ------ ---- -------------
00336.M2TS 0:00:00.000 0:01:52.695 1,109,993,472 78,795 kbps
00338.M2TS 0:01:52.695 0:43:49.960 27,967,033,344 85,072 kbps
00339.M2TS 0:45:42.656 0:01:00.518 626,872,320 82,866 kbps
00340.M2TS 0:46:43.175 0:21:55.313 13,941,319,680 84,793 kbps
00342.M2TS 1:08:38.489 0:20:03.785 12,780,939,264 84,938 kbps
00354.M2TS 142.275 0:09:22.478 6,040,731,648 85,915 kbps
00356.M2TS 1:38:04.753 0:05:43.259 3,625,009,152 84,484 kbps
00351.M2TS 1:43:48.013 0:22:47.699 14,585,315,328 85,312 kbps
00343.M2TS 2:06:35.712 0:06:22.256 2,515,372,032 52,642 kbps



************************************************************************************
Theatrical Cut
DISC INFO:
Disc Title: PROFESSIONAL_THE Theatrical Cut
Disc Size: 90,067,551,522 bytes
Protection: AACS2
BD-Java: Yes
Extras: Ultra HD
BDInfo: 0.5.8.7 (compatible layout created by DVDFab 10.0.7.1)

PLAYLIST REPORT:
Name: 00505.MPLS
Length: 1:49:27.602 (h:m:s.ms)
Size: 69,176,819,712 bytes
Total Bitrate: 84.26 Mbps

(*) Indicates included stream hidden by this playlist.

VIDEO:
Codec Bitrate Description
----- ------- -----------
MPEG-H HEVC Video 65561 kbps 2160p / 23.976 fps / 16:9 / Main 10 Profile 5.1 High / 4:2:0 / 10 bits / HDR / BT.2020 /

AUDIO:
Codec Language Bitrate Description
----- -------- ------- -----------
Dolby Atmos/TrueHD Audio English 5073 kbps 7.1-Atmos / 48 kHz / 5073 kbps / 16-bit (AC3 Core: 5.1 / 48 kHz / 640 kbps)
Dolby Digital Audio French 640 kbps 5.1 / 48 kHz / 640 kbps
Dolby Digital Audio Portuguese 640 kbps 5.1 / 48 kHz / 640 kbps
* Dolby Atmos/TrueHD Audio English 5044 kbps 7.1-Atmos / 48 kHz / 5044 kbps / 24-bit (AC3 Core: 5.1 / 48 kHz / 640 kbps)
* Dolby Digital Audio French 640 kbps 5.1 / 48 kHz / 640 kbps
* Dolby Digital Audio Portuguese 640 kbps 5.1 / 48 kHz / 640 kbps

SUBTITLES:
Codec Language Bitrate Description
----- -------- ------- -----------
Presentation Graphics English 25.291 kbps
Presentation Graphics English 22.404 kbps
Presentation Graphics French 19.857 kbps
Presentation Graphics Portuguese 17.499 kbps
Presentation Graphics Spanish 19.8 kbps

FILES:
Name Time In Length Size Total Bitrate
---- ------- ------ ---- -------------
00001.M2TS 0:00:00.000 0:01:52.737 1,121,808,384 79,604 kbps
00338.M2TS 0:01:52.737 0:43:49.960 27,967,033,344 85,072 kbps
00337.M2TS 0:45:42.698 0:00:39.497 409,399,296 82,920 kbps
00340.M2TS 0:46:22.196 0:21:55.313 13,941,319,680 84,793 kbps
00341.M2TS 1:08:17.510 0:03:02.765 1,930,358,784 84,495 kbps
00354.M2TS 1:11:20.275 0:09:22.478 6,040,731,648 85,915 kbps
00355.M2TS 1:20:42.754 0:00:29.779 315,734,016 84,818 kbps
00351.M2TS 1:21:12.534 0:22:47.699 14,585,315,328 85,312 kbps
00347.M2TS 1:44:00.233 0:05:27.368 2,865,119,232 70,015 kbps




Click on image(CTRL + Left Click)

Posted 26 January 2018 - 05:50 AM


#2 grimmpat

grimmpat

    Member

  • Members
  • PipPip
  • 35 posts

thx for sharing


Posted 27 January 2018 - 06:46 PM


#3 bobmaluga

bobmaluga

    Newbie

  • Members
  • Pip
  • 2 posts

Thanks


Posted 28 January 2018 - 11:29 AM


#4 marek972

marek972

    Newbie

  • Members
  • Pip
  • 5 posts

Thank you


Posted 03 February 2018 - 09:08 AM


#5 paulrobeson

paulrobeson

    Newbie

  • Members
  • Pip
  • 6 posts

Excellente


Posted 03 February 2018 - 12:27 PM


#6 BDgeek

BDgeek

    Newbie

  • Members
  • Pip
  • 3 posts

Great ´post! Thank you so much!


Posted 04 February 2018 - 02:13 AM


#7 neilmc1983

neilmc1983

    Member

  • Members
  • PipPip
  • 19 posts

woo hoo


Posted 08 February 2018 - 12:01 PM


#8 madi

madi

    Member

  • Banned
  • PipPip
  • 36 posts

Obrigado!

 


Posted 21 April 2018 - 08:31 PM


#9 itsjustme

itsjustme

    Newbie

  • Members
  • Pip
  • 4 posts

Thank you


Posted 01 May 2018 - 01:46 AM