Jump to content

Photo

The Peanuts Movie 2015 4K UltraHD 2160p Blu-ray HEVC - COASTER


  • Please log in to reply
No replies to this topic

#1 Nedsret-TP

Nedsret-TP

    TehParadox

  • Administrators
  • 3,562 posts
The.Peanuts.Movie.2015.COMPLETE.UHD.BLURAY-COASTER


5a733761e444e.jpg




dl.jpg

Hidden Content
You'll be able to see the hidden content once you reply to this topic.





 


imdb.png
http://www.imdb.com/title/tt2452042/



 

http://www.blu-ray.c...Blu-ray/148015/

Disc Title: The.Peanuts.Movie.2015.COMPLETE.UHD.BLURAY-COASTER
Disc Size: 48,735,713,280 bytes
Protection: AACS2
BD-Java: Yes
Extras: Ultra HD
BDInfo: 0.5.8.7 (compatible layout created by DVDFab 10.0.7.4)

PLAYLIST REPORT:
Name: 00800.MPLS
Length: 106.155 (h:m:s.ms)
Size: 31,263,270,912 bytes
Total Bitrate: 47.31 Mbps

(*) Indicates included stream hidden by this playlist.

VIDEO:
Codec Bitrate Description
----- ------- -----------
MPEG-H HEVC Video 34599 kbps 2160p / 23.976 fps / 16:9 / Main 10 Profile 5.1 High / 4:2:0 / 10 bits / HDR / BT.2020 /

AUDIO:
Codec Language Bitrate Description
----- -------- ------- -----------
Dolby Digital Audio Spanish 448 kbps 5.1 / 48 kHz / 448 kbps
DTS Audio French 768 kbps 5.1 / 48 kHz / 768 kbps / 24-bit
DTS Audio German 768 kbps 5.1 / 48 kHz / 768 kbps / 24-bit
DTS Audio Italian 768 kbps 5.1 / 48 kHz / 768 kbps / 24-bit
Dolby Atmos/TrueHD Audio English 5054 kbps 7.1-Atmos / 48 kHz / 5054 kbps / 24-bit (AC3 Core: 5.1 / 48 kHz / 448 kbps)
Dolby Digital Audio English 448 kbps 5.1 / 48 kHz / 448 kbps
* DTS Audio Japanese 768 kbps 5.1 / 48 kHz / 768 kbps / 24-bit

SUBTITLES:
Codec Language Bitrate Description
----- -------- ------- -----------
Presentation Graphics English 37.975 kbps
Presentation Graphics Spanish 25.027 kbps
Presentation Graphics French 23.751 kbps
Presentation Graphics Danish 24.403 kbps
Presentation Graphics Dutch 22.979 kbps
Presentation Graphics Finnish 22.894 kbps
Presentation Graphics German 26.039 kbps
Presentation Graphics Italian 26.229 kbps
Presentation Graphics Norwegian 23.606 kbps
Presentation Graphics Swedish 21.582 kbps
* Presentation Graphics Japanese 0.106 kbps
* Presentation Graphics Japanese 15.708 kbps

FILES:
Name Time In Length Size Total Bitrate
---- ------- ------ ---- -------------
00107.M2TS 0:00:00.000 0:01:28.463 526,718,976 47,632 kbps
00061.M2TS 0:01:28.463 0:08:03.149 2,780,571,648 46,040 kbps
00068.M2TS 0:09:31.612 1:07:49.398 24,333,950,976 47,837 kbps
00060.M2TS 1:17:21.011 0:10:45.144 3,622,029,312 44,914 kbps




Click on image(CTRL + Left Click)

Posted 01 February 2018 - 03:55 PM