Jump to content

Photo

Frozen 2013 Blu-ray 1080p AVC DTS-HD MA 7.1-LAZERS

Frozen 2013 Blu-Ray Disc Untouched tt2294629

  • Please log in to reply
7 replies to this topic

#1 Nedsret-TP

Nedsret-TP

    TehParadox

  • Administrators
  • 3,546 posts
Frozen 2013 Blu-ray 1080p AVC DTS-HD MA 7.1-LAZERS


594eca5fda3dc.jpeg




dl.jpg

Hidden Content
You'll be able to see the hidden content once you reply to this topic.





 


imdb.png
http://www.imdb.com/title/tt2294629/



 

Frozen 2013 1080p Blu-ray AVC DTS-HD MA 7.1-LAZERS

Disc Title: FROZEN_ISO
Disc Size: 43,115,033,549 bytes
Protection: AACS
BD-Java: Yes
Playlist: 00800.MPLS
Size: 27,043,436,544 bytes
Length: 1:42:13.043
Total Bitrate: 35.28 Mbps
Video: MPEG-4 AVC Video / 26696 kbps / 1080p / 23.976 fps / 16:9 / High Profile 4.1
Audio: English / DTS-HD Master Audio / 7.1 / 48 kHz / 4906 kbps / 24-bit (DTS Core: 5.1 / 48 kHz / 1509 kbps / 24-bit)
Audio: English / Dolby Digital Audio / 2.0 / 48 kHz / 320 kbps / Dolby Surround
Audio: French / Dolby Digital Audio / 5.1 / 48 kHz / 640 kbps
Audio: Spanish / Dolby Digital Audio / 5.1 / 48 kHz / 640 kbps
Subtitle: English / 43.897 kbps
Subtitle: English / 33.718 kbps
Subtitle: French / 34.510 kbps
Subtitle: Spanish / 34.005 kbps


Get a Horse! 2013
http://www.imdb.com/title/tt2980764/
Disc Title: Frozen 2013
Disc Size: 7,919,492,045 bytes
Protection: AACS
BD-Java: Yes
Playlist: 00200.MPLS
Size: 1,587,302,400 bytes
Length: 0:06:00.651
Total Bitrate: 35.21 Mbps
Video: MPEG-4 AVC Video / 26726 kbps / 1080p / 23.976 fps / 16:9 / High Profile 4.1
Audio: English / DTS-HD Master Audio / 7.1 / 48 kHz / 4875 kbps / 24-bit (DTS Core: 5.1 / 48 kHz / 1509 kbps / 24-bit)
Audio: English / Dolby Digital Audio / 2.0 / 48 kHz / 320 kbps / Dolby Surround
Audio: French / Dolby Digital Audio / 5.1 / 48 kHz / 640 kbps
Audio: Spanish / Dolby Digital Audio / 5.1 / 48 kHz / 640 kbps
Subtitle: English / 37.515 kbps
Subtitle: English / 15.898 kbps
Subtitle: French / 14.692 kbps
Subtitle: Spanish / 16.644 kbps
Subtitle: Spanish / 0.404 kbps

FILES:

Name Time In Length Size Total Bitrate
---- ------- ------ ---- -------------
00914.M2TS 0:00:00.000 0:00:08.675 35,690,496 32,912
00915.M2TS 0:00:08.675 0:00:11.344 35,328,000 24,912
00916.M2TS 0:00:20.020 0:05:10.059 1,379,420,160 35,591
00917.M2TS 0:05:30.079 0:00:26.067 117,264,384 35,988
00918.M2TS 0:05:56.147 0:00:04.504 19,599,360 34,808





594eca21b135a.png 594eca2562e9a.png 594eca296c645.png 594eca2a92338.png 594eca2b3b59a.png 594eca2df3208.png 594eca2f1e7b9.png 594eca572f644.png
Click on image

Posted 24 June 2017 - 08:29 PM


#2 samikiman

samikiman

    Newbie

  • Members
  • Pip
  • 6 posts

Thank You!!! :)


Posted 25 June 2017 - 04:44 PM


#3 sergiol

sergiol

    Member

  • Members
  • PipPip
  • 11 posts

thanks...


Posted 25 June 2017 - 04:56 PM


#4 jacas

jacas

    Newbie

  • Members
  • Pip
  • 4 posts

:)

 


Posted 26 June 2017 - 04:26 AM


#5 Solo108

Solo108

    Member

  • Banned
  • PipPip
  • 44 posts

:D Thanks.


Posted 28 July 2017 - 06:45 PM


#6 Ammar79

Ammar79

    Newbie

  • Members
  • Pip
  • 6 posts

Very Thanks


Posted 07 September 2017 - 05:44 PM


#7 genius_corp

genius_corp

    Newbie

  • Members
  • Pip
  • 2 posts

Many thanks!


Posted 22 January 2018 - 11:26 AM


#8 dkgs

dkgs

    Newbie

  • Members
  • Pip
  • 1 posts

thank you


Posted 19 June 2018 - 08:24 AM




Also tagged with one or more of these keywords: Frozen 2013, Blu-Ray Disc Untouched, tt2294629