Jump to content

Photo

King Kong 2005 EUR Blu-ray 1080p VC-1 DTS-HD MA 5.1

King Kong 2005 EUR BD50 Blu-Ray Disc Untouched tt0360717

  • Please log in to reply
6 replies to this topic

#1 Nedsret-TP

Nedsret-TP

    TehParadox

  • Administrators
  • 4,211 posts
King Kong 2005 2in1 EUR Blu-ray 1080p VC-1 DTS-HD MA 5.1 


5ba4fd22ddc75.jpg




dl.jpg

HDCenter Hidden Content
You'll be able to see the hidden content once you reply to this topic. (This forum is for only premium members.None Free)





 


imdb.png
https://www.imdb.com/title/tt0360717/



 

File Name...............: King.Kong.2005.2in1.1080p.EUR.Blu-ray.VC-1.DTS-HD.MA.5.1-RapidTurk.iso
File Size...............: 40.82 GB (43,829,919,744 bytes)
MD5 / SFV...............: SFV-CRC32 = A81AEF64
Bluray Web..............: https://www.blu-ray....ing-Kong/19360/

King Kong 2005 2in1 EUR Blu-ray 1080p VC-1 DTS-HD MA 5.1

DISC INFO:
Disc Size: 43 827 386 545 bytes
Protection: AACS
BD-Java: Yes
BDInfo: 0.5.6

PLAYLIST REPORT:
Name: 00000.MPLS
Length: 3:20:07 (h:m:s)
Size: 42 078 807 360 bytes
Total Bitrate: 28,03 Mbps

VIDEO:
Codec Bitrate Description
----- ------- -----------
VC-1 Video 16326 kbps 1080p / 23,976 fps / 16:9 / Advanced Profile 3
VC-1 Video 574 kbps 480p / 23,976 fps / 16:9 / Advanced Profile 2
VC-1 Video 77 kbps 480p / 23,976 fps / 4:3 / Advanced Profile 2

AUDIO:
Codec Language Bitrate Description
----- -------- ------- -----------
DTS-HD Master Audio English 4180 kbps 5.1 / 48 kHz / 4180 kbps / 24-bit (DTS Core: 5.1 / 48 kHz / 1509 kbps / 24-bit)
DTS Audio French 768 kbps 5.1 / 48 kHz / 768 kbps / 24-bit
DTS Audio German 768 kbps 5.1 / 48 kHz / 768 kbps / 24-bit
DTS Audio Italian 768 kbps 5.1 / 48 kHz / 768 kbps / 24-bit
DTS Audio Japanese 768 kbps 5.1 / 48 kHz / 768 kbps / 24-bit
DTS Audio Spanish 768 kbps 5.1 / 48 kHz / 768 kbps / 24-bit
Dolby Digital Audio English 192 kbps 2.0 / 48 kHz / 192 kbps / DN -4dB / Dolby Surround
DTS Express English 192 kbps 2.0 / 48 kHz / 192 kbps / 24-bit

SUBTITLES:
Codec Language Bitrate Description
----- -------- ------- -----------
Presentation Graphics English 16,302 kbps
Presentation Graphics English 20,398 kbps
Presentation Graphics English 82,764 kbps
Presentation Graphics Chinese 11,317 kbps
Presentation Graphics Danish 14,903 kbps
Presentation Graphics Dutch 13,116 kbps
Presentation Graphics Finnish 14,040 kbps
Presentation Graphics French 14,361 kbps
Presentation Graphics French 67,133 kbps
Presentation Graphics French 14,789 kbps
Presentation Graphics French 0,414 kbps
Presentation Graphics German 19,053 kbps
Presentation Graphics German 80,947 kbps
Presentation Graphics German 16,701 kbps
Presentation Graphics German 0,446 kbps
Presentation Graphics Greek 16,316 kbps
Presentation Graphics Italian 15,972 kbps
Presentation Graphics Italian 67,817 kbps
Presentation Graphics Italian 14,648 kbps
Presentation Graphics Italian 1,261 kbps
Presentation Graphics Japanese 10,385 kbps
Presentation Graphics Japanese 45,360 kbps
Presentation Graphics Japanese 11,750 kbps
Presentation Graphics Japanese 1,027 kbps
Presentation Graphics Korean 8,771 kbps
Presentation Graphics Norwegian 13,838 kbps
Presentation Graphics Portuguese 15,395 kbps
Presentation Graphics Spanish 16,223 kbps
Presentation Graphics Spanish 70,925 kbps
Presentation Graphics Spanish 14,679 kbps
Presentation Graphics Spanish 1,293 kbps
Presentation Graphics Swedish 14,352 kbps

FILES:
Name Time In Length Size Total Bitrate
---- ------- ------ ---- -------------
00414.M2TS 0:00:00.000 1:14:09.194 15 803 506 944 28 416
00437.M2TS 1:14:09.194 0:02:49.752 579 028 992 27 288
00415.M2TS 1:16:58.947 0:14:11.433 3 048 539 520 28 644
00435.M2TS 1:31:10.381 0:00:27.569 102 825 984 29 838
00436.M2TS 1:31:37.950 0:07:14.559 1 572 609 984 28 951
00438.M2TS 1:38:52.509 0:07:34.120 1 537 883 904 27 092
00439.M2TS 1:46:26.630 0:20:53.961 4 381 341 696 27 952
00440.M2TS 2:07:20.591 0:01:58.576 400 398 336 27 014
00442.M2TS 2:09:19.167 0:15:53.535 3 208 906 752 26 922
00444.M2TS 2:25:12.703 0:00:33.116 112 982 016 27 293
00445.M2TS 2:25:45.820 0:20:29.853 4 296 388 608 27 947
00447.M2TS 2:46:15.673 0:00:22.147 88 449 024 31 950
00448.M2TS 2:46:37.821 0:05:44.594 1 228 240 896 28 514
00450.M2TS 2:52:22.415 0:00:53.261 185 763 840 27 902
00451.M2TS 2:53:15.676 0:20:48.789 4 327 213 056 27 721
00453.M2TS 3:14:04.466 0:00:14.347 54 964 224 30 647
00454.M2TS 3:14:18.813 0:05:49.057 1 149 763 584 26 351




Click on image(CTRL + Left Click)

Posted 28 June 2017 - 12:18 AM


#2 mikisoft

mikisoft

    Member

  • Members
  • PipPip
  • 28 posts

Thank you!


Posted 08 August 2017 - 10:32 AM


#3 DeltaXX

DeltaXX

    Premium Member

  • VIP Member
  • 43 posts

thanks


Posted 13 August 2017 - 09:48 AM


#4 TomTrumPra

TomTrumPra

    Newbie

  • Members
  • Pip
  • 3 posts

Thank you!


Posted 14 August 2017 - 01:41 PM


#5 xispas24

xispas24

    Newbie

  • Members
  • Pip
  • 1 posts

Thank you :)


Posted 15 August 2017 - 03:06 PM


#6 saugsepp

saugsepp

    Advanced Member

  • Members
  • PipPipPip
  • 126 posts
thanks

Posted 18 December 2017 - 11:40 PM


#7 loverko34

loverko34

    Member

  • Members
  • PipPip
  • 18 posts

Thanks


Posted 28 December 2017 - 04:41 PM




Also tagged with one or more of these keywords: King Kong 2005, EUR, BD50, Blu-Ray Disc Untouched, tt0360717